Vítejte na stránkách . Klikněte zde pro registraci

Uživatelské jméno:   Heslo:   Pamätat si ma  Skrýt můj online stav 
Registrovat    Přihlásit se    Fórum    Hledat    FAQ
Bannery     Kontakt   


Informační Panel

wel




www.centralwar.eu
www.centralwar.eu

Obsah fóra » Filmy download » HD filmy a jiné » HD filmy cz/sk




Odeslat nové téma Odpovědět na téma  [ Příspěvků: 2 ] 
Autor Zpráva
 Předmět příspěvku: Venom / Venom (2018)
 Příspěvek Napsal: 05 led 2019, 13:13 
Online
Registrovaní uživatelé

Registrován: 24 pro 2018, 09:57
ID Užívateľa: 66994

Online: 55d 8h 3m 38s
Poďakoval: 0 x
Obdržal: 0 x


Částka:
4,921.45



Karma: 0


Venom / 2018

Pouze Registrovaní uživatelé mohou prohlížet odkazy v tagu code! Registrujte se anebo se Přihlašte na fórum.


Obrázek

Vnm.2018.CZ.EN.1080p.mkv 13,5Gb

video: 1920 x 800
audio: 5.1 CZ , 7.1EN
titulky: CZ , SK


Format : Matroska at 17,2 Mb/s
Length : 13,5 GiB for 1 h 52 min 8 sek. 800 ms
Video #0 : AVC at 15,0 Mb/s
Aspect : 1920 x 800 (2.400) at 23.976 fps
Audio #0 : AC-3 at 640 kb/s
Infos : 6 kanálov, 48,0 kHz
Language : cs
Audio #1 : AC-3 at 1 536 kb/s
Infos : 8 kanálov, 48,0 kHz
Language : en
Text #0 : UTF-8
Language : cs
Text #1 : UTF-8
Language : sk


Pouze Registrovaní uživatelé mohou prohlížet odkazy v tagu code! Registrujte se anebo se Přihlašte na fórum.


Naposledy upravil Stanley dne 05 led 2019, 17:21, celkově upraveno 1
Oprava názvu tématu


Nahoru 
 Profil  
 
 Předmět příspěvku: Venom / Venom (2018)
 Příspěvek Napsal: 13 bře 2019, 20:09 
Offline
Registrovaní uživatelé

Registrován: 27 led 2016, 20:28
ID Užívateľa: 65951

Online: 11d 9h 7m 20s
Poďakoval: 0 x
Obdržal: 0 x


Částka:
3,793.50



Karma: 0


Venom (2018)

Obrázek

Video/Zdroj: BluRay 1080p
Audio: CZ AC-3 5.1ch, EN E-AC-3 7.1ch/5.1ch
Titulky: CZ, SK


CSFD / IMDB
Pouze Registrovaní uživatelé mohou prohlížet odkazy v tagu code! Registrujte se anebo se Přihlašte na fórum.


INFO
Citace:
Format : Matroska
Format version : Version 4 / Version 2
File size : 13.5 GiB
Duration : 1h 52mn
Overall bit rate : 17.2 Mbps

Video
Format : AVC
Format profile : High@L4.1
Duration : 1h 52mn
Bit rate : 15.0 Mbps
Width : 1 920 pixels
Height : 800 pixels
Display aspect ratio : 2.40:1
Frame rate mode : Constant
Frame rate : 23.976 (24000/1001) fps
Color space : YUV
Chroma subsampling : 4:2:0
Bit depth : 8 bits
Scan type : Progressive
Bits/(Pixel*Frame) : 0.407
Stream size : 11.8 GiB (87%)

Audio #1
Format : AC-3
Duration : 1h 52mn
Bit rate mode : Constant
Bit rate : 640 Kbps
Channel(s) : 6 channels
Channel positions : Front: L C R, Side: L R, LFE
Sampling rate : 48.0 KHz
Frame rate : 31.250 fps (1536 spf)
Compression mode : Lossy
Stream size : 513 MiB (4%)
Language : Czech
Default : Yes
Forced : Yes

Audio #2
Format : E-AC-3
Format/Info : Audio Coding 3
Duration : 1h 52mn
Bit rate mode : Constant
Bit rate : 500 bps
Channel(s) : 8 channels
Channel(s)_Original : 6 channels
Channel positions : Front: L C R, Side: L R, LFE
Sampling rate : 48.0 KHz
Frame rate : 187.500 fps (256 spf)
Compression mode : Lossy
Stream size : 1.20 GiB (9%)
Language : English
Default : No
Forced : No

Text #1
Format : UTF-8
Language : Czech
Default : No
Forced : No

Text #2
Format : UTF-8
Language : Slovak
Default : No
Forced : No


FASTSHARE

Pouze Registrovaní uživatelé mohou prohlížet odkazy v tagu code! Registrujte se anebo se Přihlašte na fórum.


Pouze Registrovaní uživatelé mohou prohlížet odkazy v tagu code! Registrujte se anebo se Přihlašte na fórum.


Bez hesla. Balené bez kompresie. Pridaný záznam pre opravu dát 5%.

-------------------------------------------------------------------------------------------------------------------------------------------------------------------

Video/Zdroj: BluRay UHD 2160p
Audio: CZ AC-3 5.1ch, EN TrueHD+Atmos 7.1ch, EN AC-3 5.1ch
Titulky: CZ, SK, EN


INFO
Citace:
Format : Matroska
Format version : Version 4 / Version 2
File size : 14.9 GiB
Duration : 1 h 52 min
Overall bit rate mode : Variable
Overall bit rate : 19.0 Mb/s

Video
Format : HEVC
Format profile : Main 10@L5.1@High
Duration : 1 h 52 min
Bit rate : 11.2 Mb/s
Width : 3 840 pixels
Height : 1 600 pixels
Display aspect ratio : 2.40:1
Frame rate mode : Constant
Frame rate : 23.976 (24000/1001) FPS
Color space : YUV
Chroma subsampling : 4:2:0 (Type 2)
Bit depth : 10 bits
Bits/(Pixel*Frame) : 0.076
Stream size : 8.74 GiB (59%)

Audio #1
Format : AC-3
Duration : 1 h 52 min
Bit rate mode : Constant
Bit rate : 640 kb/s
Channel(s) : 6 channels
Channel positions : Front: L C R, Side: L R, LFE
Sampling rate : 48.0 kHz
Frame rate : 31.250 FPS (1536 SPF)
Bit depth : 16 bits
Compression mode : Lossy
Stream size : 513 MiB (3%)
Language : Czech
Default : No
Forced : Yes

Audio #2
Format : TrueHD
Format profile : TrueHD+Atmos / TrueHD
Duration : 1 h 52 min
Bit rate mode : Variable
Bit rate : 3 212 kb/s
Maximum bit rate : 5 394 kb/s
Channel(s) : Object Based / 8 channels
Channel positions : Object Based / Front: L C R, Side: L R, Back: L R, LFE
Sampling rate : / 48.0 kHz
Frame rate : 1 200.000 FPS (40 SPF)
Compression mode : Lossless
Stream size : 2.52 GiB (17%)
Language : English
Default : Yes
Forced : No

Audio #3
Format : AC-3
Duration : 1 h 52 min
Bit rate mode : Constant
Bit rate : 640 kb/s
Channel(s) : 6 channels
Channel positions : Front: L C R, Side: L R, LFE
Sampling rate : 48.0 kHz
Frame rate : 31.250 FPS (1536 SPF)
Bit depth : 16 bits
Compression mode : Lossy
Stream size : 513 MiB (3%)
Language : English
Default : No
Forced : No

Audio #4
Format : TrueHD
Format profile : TrueHD+Atmos / TrueHD
Duration : 1 h 52 min
Bit rate mode : Variable
Bit rate : 3 212 kb/s
Maximum bit rate : 5 394 kb/s
Channel(s) : Object Based / 8 channels
Channel positions : Object Based / Front: L C R, Side: L R, Back: L R, LFE
Sampling rate : / 48.0 kHz
Frame rate : 1 200.000 FPS (40 SPF)
Compression mode : Lossless
Stream size : 2.52 GiB (17%)
Language : English
Default : No
Forced : No

Text #1
Format : UTF-8
Language : Czech
Default : No
Forced : No

Text #2
Format : UTF-8
Language : Slovak
Default : No
Forced : No

Text #3
Format : PGS
Language : English
Default : No
Forced : No

Text #4
Format : PGS
Language : English
Default : No
Forced : No


FASTSHARE

Pouze Registrovaní uživatelé mohou prohlížet odkazy v tagu code! Registrujte se anebo se Přihlašte na fórum.


Pouze Registrovaní uživatelé mohou prohlížet odkazy v tagu code! Registrujte se anebo se Přihlašte na fórum.


Bez hesla. Balené bez kompresie. Pridaný záznam pre opravu dát 5%.


Naposledy upravil Sonty1 dne 30 dub 2019, 21:27, celkově upraveno 2

Nahoru 
 Profil  
 
Zobrazit příspěvky za předchozí:  Seřadit podle  
 
Odeslat nové téma Odpovědět na téma  [ Příspěvků: 2 ] 

Obsah fóra » Filmy download » HD filmy a jiné » HD filmy cz/sk


 
Nemůžete zakládat nová témata v tomto fóru
Nemůžete odpovídat v tomto fóru
Nemůžete upravovat své příspěvky v tomto fóru
Nemůžete mazat své příspěvky v tomto fóru
Nemůžete přikládat soubory v tomto fóru

Hledat:
Přejít na:  







TOPlist
Český překlad – phpBB.cz
Karma functions powered by Karma MOD © 2007, 2009 m157y
phpBB SEO



..:: Žádný ze zobrazených souborů, které můžete nalézt na tomto fóru, nejsou umístěny na tomto serveru. Autoři stránky nenesou zodpovědnost za příspěvky odeslané užívateli,ani za jejich další akce,které by mohli vést k porušování zákonů. Za své příspěvky zodpovídají uživatelé. Nepoužívejte tyto stránky k distribuci a nebo k downloadu jakýchkoliv materiálů, ke kterým nemáte legální oprávnění a nebo licenci ::..